The Wind Cat Stevens Wiki

Cat Stevens — Cat Stevens, 1976 Cat Stevens (* 21. Cat Stevens lyrics - 187 song lyrics sorted by album, including "Father And Son", "Wild World", "Tea For The Tillerman". Cat Stevens said of Salman Rushdie, author of Satanic Verses: "He must be killed. C'est aussi. All versions of the soundtrack includes classic songs performed by the film's main cast, as well the song "Faith", which was written specifically for the movie and performed by Stevie Wonder and Ariana Grande. Il ne faut pas oublier la reprise de Mélanie Safka (qui chanta en son temps,"look what they done to my song, Ma!") de ce Dust in the Wind. Yusuf Islam | Cat Stevens Read up on his history, his conversion to Islam, chat with other fans and join the mailing list. Cat Stevens Much of Cat Stevens' success came in the '70s, but his music career began Cat Stevens. Official website of Yusuf / Cat Stevens. "Where Do the Children Play?" "Wild World" "Tuesday's Dead" "Lady D'Arbanville" "The First Cut Is the Deepest" "Oh Very Young" "Rubylove" "Morning Has Broken" "Moon Shadow" "Matthew and Son. It is exclusive to the deluxe edition of the Sing: Original Motion Picture Soundtrack. Today, he has toured or recorded with some of the biggest names in music including James Brown, Prince, Sheila E, Stevie Nicks, Earth, Wind & Fire. Sein im September 1971 veröffentlichtes Album Teaser and the Firecat verkaufte sich noch besser als die Vorgängeralben. Cat Stevens is best known for his early 1970s record albums Tea for the Tillerman and Teaser and the Firecat. In a contemporary review for Rolling Stone magazine, music critic Timothy Crouse praised Stevens' distinctive musical style and introspective songs such as "Tuesday's Dead" and "The Wind", but felt that he lacks Van Morrison's evocative quality and James Taylor's refined lyrics: "Cat has become a dependable artist, a good artist, but he appears. Wind is one of the four elements along with fire, water, and earth. " -Tom Waits. Em Dezembro de 2013, Natalie revelou, pelas redes sociais, que estava a preparar um álbum de covers, [1] produzido por Christian Medice e Billy Mann. Jennifer from Sudbury, Canada He Nikki from Brampton (1st comment posted): Cat Stevens didn't write or sing 'Seasons in the Sun'. In May 2006, in anticipation of his forthcoming new pop album, the BBC1 programme Imagine aired a 49-minute documentary with Alan Yentob called Yusuf: The Artist formerly Known as Cat Stevens. Hit enter to search or ESC to close. " For this answer I'll not consider popular status and instead focus on song craft, including lyrical depth and meaning, instrument arrangement and compositional. Majicat - Cat Stevens Scrapbook Majicat - Cat Stevens Scrapbook: intriquing and captivating fan site about Cat Stevens. She sang "Backlash Blues", written by her friend Langston Hughes on her first RCA album, Nina Simone Sings the Blues (1967). We extend to Cat Stevens the very right he would deny to others. It had begun with slamming doors, angry feet scuffing the carpets, dishes slammed onto the table, greasy stains spreading on the cloth. His musical style contains elements of folk, pop, rock, and later in his career, Islamic music. [IIL] A horse with no name, Don’t fear the reaper, Dust in the wind, Hotel California [WEWIL] (self. Birth Difficulties in Cats. Front Row Review Cat Stevens - Theatre Royal London, Sunday 12th December 1971 By Roy Carr As a first attempt in revealing all his assets at such close contact, Cat Stevens was for the most part successful when he took the stage at London’s Theatre Royal on Sunday. Hit enter to search or ESC to close. Cat Stevens, Soundtrack: Almost Famous. Northern wind means coldness, a cold attitude, as opposed to southern. Lyrics to 'Where Do The Children Play?' by Cat Stevens: Well I think it's fine, building jumbo planes Or taking a ride on a cosmic train Switch on summer from a slot machine Yes, get what you want to if you want, 'cause you can get anything. CAT STEVENS. Best Answer: It was the house that suffered most. The Great Muppet Caper is the second in a series of live-action musical feature films starring the Muppets. That Film Sounds Good: Cat Stevens - The Wind Radiohead - Karma Police Chemical Brothers - Star Guitar Starsailor - Good Souls P. Check out The Wind by Cat Stevens on Amazon Music. Trouble, oh, trouble can't you see?. It happens when you look back and realize your life or integrity was in danger, that you were playing with fire, or a person who was dangerous and could have destroyed you. A new chart is compiled and officially released to the public by Billboard on Thursday. As America's most fearless purveyor of "truthiness," Stephen Colbert shines a light on ego-driven punditry, moral hypocrisy and government incompetence, raising the bar for political satire. Who's Next - The Who. Celebrate 50 years of the illustrious career of Yusuf Islam (a. The soundtrack includes classic songs performed by the film's main cast as well the song "Faith" which was written specifically for the movie and performed by Stevie Wonder and Ariana Grande. Questo album è fatto di cover di canzoni degli anni sessanta di artisti come Bob Dylan e Cat Stevens. Cat Stevens Lyrics. Each song has the word wind in the song title. Cat Stevens is tagged as: folk, singer-songwriter, classic rock, acoustic, rock Cat Stevens (born Steven Demetre Georgiou in London, England on 21st July 1948, and now named Yusuf Islam) is best known for his work as a popular British folk rock musician, although born and raised by a Cypriot father and a Swedish mother. His musical style contains elements of folk, pop, rock, and later in his career, Islamic music. The Wind by Cat Stevens chords. Han skreiv songen tidlegare for å marknadsføre songen til andre artistar, men spelte han ikkje inn sjølv før tidleg i oktober 1967 med gitaristen Big Jim Sullivan, og han kom ikkje ut før på det andre albumet hans, New Masters, i desember 1967. By 1970, Stevens' had reached the UK top 40 five times, but it wasn't until early 1971 that "Wild World" gave Stevens his first US hit, reaching #11 that April. Yusuf / Cat Stevens 7,967 views. One's centered. Check out The Wind by Cat Stevens on Amazon Music. "The Wind" as written by Cat Stevens, released on his 'Teaser and the Firecat' album, recorded March 1971, Morgan Studios, London, England Read More Edit Wiki. Get Cat Stevens setlists - view them, share them, discuss them with other Cat Stevens fans for free on setlist. Cat Stevens (now known as Yusuf Islam) (tracks 5-12) celesta , Moog [Polymoog], percussion and piano : Cat Stevens ( now known as Yusuf Islam ) (track 19). If one of his songs comes on the radio, change the station. That name is part of my history and a lot of the things I dreamt about as Cat Stevens have come true as Yusuf Islam. Cat Stevens - Teaser and the Firecat (Deluxe Edition) 1971/2008 ----- Teaser and the Firecat is an album released by Cat Stevens in 1971. wav" WAVE INDEX 01 00:00:00 TRACK 14 AUDIO TITLE "Northern Wind" PERFORMER "Cat Stevens" ISRC GBF076721810 INDEX 00 03:01:10 FILE "Cat Stevens - In Search Of The Centre Of The Universe - (CD1) - The City\14 - Northern Wind. In a contemporary review for Rolling Stone magazine, music critic Timothy Crouse praised Stevens' distinctive musical style and introspective songs such as "Tuesday's Dead" and "The Wind", but felt that he lacks Van Morrison's evocative quality and James Taylor's refined lyrics: "Cat has become a dependable artist, a good artist, but he appears. Wiki Bob Dylan (born Robert Allen Zimmerman, May 24, 1941) is an American singer-songwriter, author, and artist who has been an influential figure in popular music and culture for more than five decades. Purchase Teaser & the Firecat by Cat Stevens on Vinyl online and enjoy having your favourite Rock music delivered to you in South Africa. The Wind Rubylove If I Laugh Changes IV How Can I Tell You Tuesday's Dead Morning Has Broken Bitterblue Moon Shadow Peace Train External links Amazon: search for…. Chỉ tính sơ qua theo dữ liệu đưa ra công khai vào Tháng 1 năm 2007 ,cho thấy rằng ông tiếp tục kiếm được khoảng $ 1. The best album credited to Cat Stevens is Tea For The Tillerman which is ranked number 399 in the overall greatest album chart with a total rank score of 6,789. If you were tappin' your toes to "Crocodile Rock" or soaking in the wonder of Leonard Cohen's "Hallelujah" back in the '70s, you might have what it takes to name these iconic singer-songwriters who helped redeem the decade from being all disco, all the time. The year of the cat is also called the year of the rabbit which is the year right before the year of the dragon. Die Liveaufnahme wurde am 22. Sweet the rain's new fall, sunlight from heaven. Cat Stevens tabs, chords, guitar, bass, ukulele chords, power tabs and guitar pro tabs including father and son, dont be shy, but i might die tonight, cant keep it in, another saturday night. Well, I left my happy home To see what I could find out. WILD WORLD: Letra en español, vídeo musical, canciones del mismo disco // Ahora que he perdido todo de ti, tu dices que quieres empezar algo nuevo, y eso parte mi corazon tu te estas yendo, bebe eso me aflije. Es el cuarto lanzamiento de Yusuf desde su regreso a la música y el primero desde el aclamado Tell 'Em I'm Gone de 2014. Songs falling off: Cher - Dark Lady (26) MFSB & The Three Degrees - TSOP (The Sound Of Philadelphia) (0) Elton John - Bennie And The Jets (0); Gladys Knight & The Pips - Best Thing That Ever Happened To Me (+1). Albums include Tea for the Tillerman, Teaser and the Firecat, and Mona Bone Jakon. Yusuf Islam (born Steven Demetre Georgiou; 21 Julie 1948 in Lunnon, Ingland), oreeginally an commonly kent bi his umwhile stage name Cat Stevens, is a Breetish muisicker. Sailing on and sharing our infinite cosmic selves and the wind in our sails & highs. Steven Demetre Georgiou, dit Cat Stevens, est un chanteur, musicien et auteur-compositeur britannique né le 21 juillet 1948 à Londres. Louis Park, Mn I remember hearing the song in Harold and Maude. Cat Stevens — Cat Stevens/Yusuf Islam Datos generales Nacimiento 21 de julio. God's Earth Party Forever site. The year of the cat is a reference to "chasing the dragon" which is slang for being addicted to Heroin. Bad Breath (Chronic) in Cats. It also includes the albums he has released since he converted to Islam and adopted the name Yusuf Islam. Music and lyrics on this site are for the sole use of educational reference and are the property of respective authors, artists and labels. When they reach the display with the couch, a blast from a spray can reveals that the couch is surrounded by a grid of laser beams, but with gaps shaped like the Simpsons. album: "Teaser And The Firecat" (1971) The Wind Rubylove If I Laugh Changes IV How Can I Tell You Tuesday's Dead Morning Has Broken Bitterblue. C'est aussi. Eleanor Farjeon's world is construed of fantasy, romance, and an abounding yea-saying joy in the experience of life. Bile Duct Obstruction in Cats. Lyrics to 'Trouble' by Cat Stevens. "The Wind" - Cat Stevens "Hallelujah" - Tori Kelly "Shake It Off Hot" - Nick Kroll and Reese Witherspoon Despicable Me Wiki is a FANDOM Movies Community. Yusuf Islam | Cat Stevens Read up on his history, his conversion to Islam, chat with other fans and join the mailing list. Gates of Vienna News Feed 1/17/2013 Tonight’s news feed is unusually fat, due to the inclusion of last night’s items, which were never used because of the Blogger outage. In May 2006, in anticipation of his forthcoming new pop album, the BBC1 programme Imagine aired a 49-minute documentary with Alan Yentob called Yusuf: The Artist formerly Known as Cat Stevens. Related Information for Cat Stevens Yusuf Islam (born Steven Demetre Georgiou; 21 July 1948), commonly known by his former stage name Cat Stevens, is a British singer-songwriter, multi-instrumentalist, humanitarian and education philanthropist. " - Cat Stevens. Born in 1830 in London, Christina Rossetti, the author of Goblin Market and Other Poems, is a major Victorian Poet. There is a wind, my Billy, and it's awful strong Come for you, and anyone who's helped you along. La banda sonora incluye canciones clásicas realizadas por reparto principal de la película, así como la canción "Faith", que fue escrito específicamente para la película e interpretada por Stevie Wonder y Ariana Grande. Listen to trailer music, OST, original score, and the full list of popular songs in the film. THE WIND TAB (ver 4) by Cat Stevens @ Ultimate-Guitar. Simone moved from Philips to RCA Victor during 1967. «Cat Stevens habla de su nuevo trabajo musical, ideado para “reafirmar la creatividad del islam”», artículo en la revista Credencial de diciembre de 2006). "Your Honor, those boys were nutin but trouble. Terry Jacks wrote it. The album included a booklet with excerpts from a planned book of the same name written by Chris Bryant and Allan Scott. Yusuf Islam (born Steven Demetre Georgiou on 21 July 1948), also known by his stage names Cat Stevens and Yusuf, is an English musician, singer-songwriter, multi-instrumentalist, educator, philanthropist and prominent convert to Islam. " Forget Cat Stevens in every way. com - Home | Yusuf / Cat Stevens Provided by Alexa ranking, catstevens. Northern Wind (Death of Billy the Kid) Yusuf / Cat Stevens The Millennium Collection: The Best of Cat Stevens 2007 Roadsinger (Bonus Track Version) 2009 Mona Bone. They lived above their family restaurant in the West End. Me First and the Gimme Gimmes is a punk rock supergroup and cover band that formed in 1995. That Film Sounds Good: Cat Stevens - The Wind Radiohead - Karma Police Chemical Brothers - Star Guitar Starsailor - Good Souls P. "The Wind" is a song recorded by Cat Stevens. What movie featured the Cat Steven's songs Here Comes My Baby and The Wind? Tea for the Tillerman is an album by Cat Stevens. Songs for Survival. Me First and the Gimme Gimmes is a punk rock supergroup and cover band that formed in 1995. Wind is one of the four elements along with fire, water, and earth. The Simpsons break into the museum as criminals/cat-burglars, and make their way to the couch by disguising themselves to blend in with the various exhibits they pass through. This page has the widest range of wind love and quotes. The album included a booklet with excerpts from a planned book of the same name written by Chris Bryant and Allan Scott. Muitas "homenagens" foram feitas nos arranjos das versões deste álbum. Islamic music is Muslim religious music, as sung or played in public services or private devotions. View the statistics of songs played live by Cat Stevens. He is a British singer-songwriter, multi-instrumentalist, humanitarian and education philanthropist. George Stevens' Giant (1956), in One Scene As the Siren's contribution to her friend Raymond de Felitta's valiant efforts to resurrect the sadly shredded reputation of the marvelous George Stevens, she was going to write up the movie Giant. Cat Stevens said of Salman Rushdie, author of Satanic Verses: "He must be killed. This compilation album by award-winning singer/songwriter Cat Stevens contains "Morning Has Broken" , "Peace Train" and the award winning "The First Cut Is the Deepest", which has a hit single for four different artists. Lyrics to 'Morning Has Broken' by Cat Stevens: Morning has broken like the first morning Blackbird has spoken like the first bird Praise for the singing, praise for the morning Praise for them springing fresh from the world. fm! Cat Stevens Concert Setlists | setlist. Morning Has Broken Songtext von Cat Stevens mit Lyrics, deutscher Übersetzung, Musik-Videos und Liedtexten kostenlos auf Songtexte. Listen online and get new recommendations, only at Last. Sein im September 1971 veröffentlichtes Album Teaser and the Firecat verkaufte sich noch besser als die Vorgängeralben. Questo album è fatto di cover di canzoni degli anni sessanta di artisti come Bob Dylan e Cat Stevens. catstevens. Directed by George Stevens. Cat Stevens Biography by William Ruhlmann Acoustic-based hitmaker who became one of the most popular singer/songwriters of the '70s thanks to his invariably catchy material. He is a British singer-songwriter, multi-instrumentalist, humanitarian and … He is a British singer-songwriter, multi-instrumentalist, humanitarian and …. But I want to live, live, live and let the stars. Cat Stevens tabs, chords, guitar, bass, ukulele chords, power tabs and guitar pro tabs including father and son, dont be shy, but i might die tonight, cant keep it in, another saturday night. "Where Do the Children Play?" "Wild World" "Tuesday's Dead" "Lady D'Arbanville" "The First Cut Is the Deepest" "Oh Very Young" "Rubylove" "Morning Has Broken" "Moon Shadow" "Matthew and Son. Sydney: You're sure she really left? Fake quitting seems to be. Wind poems written by famous poets. Chords ratings, diagrams and lyrics. com - The Ticket Price Comparison Site!. "The Wind," a song by Cat Stevens on his 1971 album Teaser and the Firecat "The Wind," a song composed by Russ Freeman , originally appeared on the album " Chet Baker & Strings " in 1953. Yoriyos created the art on Yusuf's album An Other Cup, something that Cat Stevens did for his own albums in the 1970s. Each chart is. The Wind by Cat Stevens/Yusuf Islam. For her 1991 album, Emotions , Mariah Carey wrote her own lyrics for Freeman's composition and sang the tune. Cat Stevens lyrics - Find all lyrics for songs such as Father And Son, Cats In The Cradle, Moonshadow at LyricsFreak. Rankings are based on radio play and sales; the tracking week for sales is each Monday to Sunday, while for radio play it is Wednesday to Tuesday. Wiki Bob Dylan (born Robert Allen Zimmerman, May 24, 1941) is an American singer-songwriter, author, and artist who has been an influential figure in popular music and culture for more than five decades. V případě coververze vycházející z cizí předělané skladby je uveden nejprve interpret originální coververze a za lomítkem autor či in. He is a prominent convert to Islam. 41 videos Play all Cat Stevens - 1971: Teaser and the Firecat Full Album meme9438 Yusuf / Cat Stevens - Tell 'Em I'm Gone (Full Album) - Duration: 36:01. Who'll be my love? You'll be my love, You'll be my sky above Who'll be my light? You'll be my light, You'll be my day and night You'll be mine tonight Roupi Glukeia. Cat Stevens Concerts, TV & Radio gigs and other important dates. by Michael May 21, 2015. Cat Stevens Net Worth $5 Million Dollars. The Very Best of Cat Stevens is the title of a compilation album by Cat Stevens. Islamic music is Muslim religious music, as sung or played in public services or private devotions. Grandsons Lyrics. CAT STEVENS. Northern Wind (Death of Billy the Kid) Yusuf / Cat Stevens The Millennium Collection: The Best of Cat Stevens 2007 Roadsinger (Bonus Track Version) 2009 Mona Bone. It is a song about him meditating. very cool!!!!. The album contains 10 songs including the hits " Morning Has Broken ", " Moonshadow " and " Peace Train ". Best Answer: Hi Ipek K, he (cat stevens) feels kinda sorta stressed at work. He was born as Stephen Demetre Georgiou to a Swedish mother and Greek father. Die Tournee lief unter dem Namen „Majikat Earth Tour". A great big gust of wind came by and every soul was lost. De dan van Strawbs bekende Rick Wakeman was in de studio als studiomuzikant en ze vroegen hem of hij nog iets had dat als intro kon dienen. On the Road to Find Out is the first multi-volume package to comprehensively examine the artistry of singer/songwriter Cat Stevens (aka Yusuf Islam). Quotes Edit. Download Cat Stevens - The Boxset 2001 only1joe 320MP3 torrent or any other torrent from the Audio Other. Genres: Singer/Songwriter, Folk Pop, Folk Rock. Listen to trailer music, OST, original score, and the full list of popular songs in the film. He was inducted into the Rock and Roll Hall of Fame in 2014. Cat Stevens Concerts, TV & Radio gigs and other important dates. E F G O S Innen oder Außen Kugel in Kugel Sonnenaufgang 03:19 Morning has Broken - Cat Stevens Catch The Wind Morning has broken The sun ain't gonna shine anymore Here come the sun. Songs falling off: Cher - Dark Lady (26) MFSB & The Three Degrees - TSOP (The Sound Of Philadelphia) (0) Elton John - Bennie And The Jets (0); Gladys Knight & The Pips - Best Thing That Ever Happened To Me (+1). The Wind, an American western horror film; Music. View credits, reviews, tracks and shop for the 2011 CD release of Icon on Discogs. Northern Wind This song is by Cat Stevens and appears on the album New Masters (1967) and on the album The Laughing Apple (2017) by Yusuf. Lyrics to "The Laughing Apple" song by Cat Stevens: Slowly Let me tell you a story Lover tree An apple tree Once in a summertime garden Lived a little Cat Stevens - The Laughing Apple Lyrics | AZLyrics. 2 is a compilation album released by Cat Stevens in 1984. ダミアン・リース - 2008年のアルバム『Catch the Wind - Songs of a Generation』に収録。 リーム・リューバニ - 2015年公開の映画『ロック・ザ・カスバ!』のサウンドトラック。 ビル・オーヴァートン - 2016年のアルバム『Always in My Heart』に収録。 脚注. His musical style consists of folk, pop, rock, and, in his later career, Islamic music. Cat Stevens guitar tabs in PDF format. Genres: Singer/Songwriter, Folk Pop, Folk Rock. ON THE ROAD TO FIND OUT lyrics (Cat Stevens), youtube lyrics: So on and on I go, / the seconds tick the time out, / there's so much left to know, / and I'm on the road to findout, ooh. Složila píseň Four Women o čtyřech různých charakterech afroamerických žen, které představují čtyři sociální stereotypy, a nazpívala ji na album Wild Is the Wind. The singer/songwriter Cat Stevens was born in 1948 in London as Steven Demetre Georgiou, to a Greek father and Swedish mother. Lyrics to 'Morning Has Broken' by Cat Stevens: Morning has broken like the first morning Blackbird has spoken like the first bird Praise for the singing, praise for the morning Praise for them springing fresh from the world. By Craig Scott August 10, 2016 Cat Stevens A Cat's Attic, Cat Stevens, Cat Stevens 2018, Yusuf I really think that this amazing man needs no introduction at all. That's The Way Of The World - Earth, Wind & Fire (3,000,000) 82. Yusuf Islam (born Steven Demetre Georgiou; 21 Julie 1948 in Lunnon, Ingland), oreeginally an commonly kent bi his umwhile stage name Cat Stevens, is a Breetish muisicker. Cat Stevens - Teaser and the Firecat (Deluxe Edition) 1971/2008 ----- Teaser and the Firecat is an album released by Cat Stevens in 1971. Yusuf / Cat Stevens 7,967 views. wav" WAVE INDEX 01 00:00:00 TRACK 14 AUDIO TITLE "Northern Wind" PERFORMER "Cat Stevens" ISRC GBF076721810 INDEX 00 03:01:10 FILE "Cat Stevens - In Search Of The Centre Of The Universe - (CD1) - The City\14 - Northern Wind. LEGEND IN YOUR OWN TIME (Carly Simon) Well I have known you Since you were a small boy And your mama used to say My boy is gonna grow up and be Some kind of leader some day. Morning has broken, like the first morning. Its fourteen songs include hits such as " Father and Son " and " Where Do the Children Play? " as well as two previously unreleased tracks from the Hal Ashby and Colin Higgins black comedy Harold and Maude (1971). [IIL] A horse with no name, Don’t fear the reaper, Dust in the wind, Hotel California [WEWIL] (self. Juli 1948 in London als Steven Demetre Georgiou) ist ein britisch zypriotischer Sänger und Songwriter. "Where Do the Children Play?" "Wild World" "Tuesday's Dead" "Lady D'Arbanville" "The First Cut Is the Deepest" "Oh Very Young" "Rubylove" "Morning Has Broken" "Moon Shadow" "Matthew and Son. Facebook is showing information to help you better understand the purpose of a Page. Cat Stevens Licensed to YouTube by UMG (on behalf of Island Records); ASCAP, LatinAutor, LatinAutor - PeerMusic, ARESA, CMRRA, EMI Music Publishing, Abramus Digital, BMG Rights Management, and 8. meteorological conditions: temperature and wind and clouds and precipitation; face or endure: I can weather the storm. Cat Stevens net worth: Cat Stevens is a British singer-songwriter and musician who has a net worth of $20 million. Posts about Cat Stevens written by Michael. Sing: Original Motion Picture Soundtrack es la banda sonora de la película musical de animación del mismo nombre de 2016. All 35 songs in Gifted, with scene descriptions. He feels pain in his chest and occasionally in his arms therefore asking his gf to FILL HIM WITH LOVE. C'est aussi. Bile Duct Obstruction in Cats. I listen to the wind To the wind of my soul Where I’ll end up well I think, Only God really knows I’ve sat upon the setting sun But never, never, never, never I never wanted water once No, never, never, never I listen to my words But they fall far below I let my. Cat Stevens Song Lyrics - The Definitive Community for Songlyrics. After all, this was written amongst many other anti war songs that he did. Official website of Yusuf / Cat Stevens. In Sing, this song played as Eddie took a swim in his parents' backyard pool. Teaser and the Firecat es el quinto álbum de estudio del cantautor británico Cat Stevens, publicado en 1971. How to Tune Into Your Inner Self. Hope it helps :)))). Cat Stevens Northern Wind lyrics & video : There is a wind, my Billy, and it's awful strong Come for you and anyone who's helped you along But I want to live, live, live and le. View credits, reviews, tracks and shop for the 1987 CD release of Classics Volume 24 on Discogs. Les cançons conegudes dels seus àlbums de Philips inclouen Don't Let Me Be Misunderstood a Broadway-Blues-Ballads (1964), I put a spell on you, Ne me quitte pas (una interpretació d'una cançó de Jacques Brel) i Feeling Good a l'àlbum I Put a Spell on You (1965), Lilac Wine i Wild Is the Wind a l'àlbum del mateix nom (1966). Almost 25 years ago Stevens chose the 20 songs, best representing his various musical styles. New Masters è il secondo album del cantautore britannico Cat Stevens, pubblicato nel 1967 dall Deram Records. It uses the Chords G, D and C but uses variants THE FIRST CUT IS THE DEEPEST CHORDS (ver 2) by Cat Stevens @ Ultimate-Guitar. I plucked pink blossoms from mine apple-tree And wore them all that evening in my. wav" WAVE INDEX 01 00:00:00 TRACK 14 AUDIO TITLE "Northern Wind" PERFORMER "Cat Stevens" ISRC GBF076721810 INDEX 00 03:01:10 FILE "Cat Stevens - In Search Of The Centre Of The Universe - (CD1) - The City\14 - Northern Wind. Try fingerpicking this song & arpagiate most of the chords. Footsteps in the Dark: Greatest Hits Vol. Questo album è fatto di cover di canzoni degli anni sessanta di artisti come Bob Dylan e Cat Stevens. El álbum contiene las canciones "Morning Has Broken", "Moon Shadow" y "Peace Train", que lograron radiodifusión y fueron un éxito tanto en Europa como en Norteamérica. Sing: Original Motion Picture Soundtrack es la banda sonora de la película musical de animación del mismo nombre de 2016. The Wind by Cat Stevens chords. Bad Breath (Chronic) in Cats. This song has been covered by Natalie Imbruglia under the title "The Wind". The best album credited to Cat Stevens is Tea For The Tillerman which is ranked number 399 in the overall greatest album chart with a total rank score of 6,789. Questo singolo è composto di cover di Cat Stevens. ; 14 – Elvis Presleys livespecial Aloha From Hawaii spelas in i Honolulu International Center. Le premier est sorti chez Polygram sur son label récemment acquis, Island Records, en janvier 1990. Today, he has toured or recorded with some of the biggest names in music including James Brown, Prince, Sheila E, Stevie Nicks, Earth, Wind & Fire. Roerich, 'Lao. Rock and Roll Hall of Fame (doslova Rokenrolová sieň slávy) je múzeum v Clevelande, Ohio, USA, ktoré slúži ako pocta významným hudobníkom, producentom a ostatným ľuďom s mimoriadnym prínosom pre vývoj svetového rock and rollu. Sing: Original Motion Picture Soundtrack is the soundtrack to the 2016 animated musical film of the same name. At age 18, he signed with Decca Records and released his first. Note: Composers are not sorted on prepositions in surnames. But I want to live, live, live and let the stars. There is a wind, my Billy, and it's awful strong Come for you, and anyone who's helped you along. The booklet features pen-and-ink illustrations drawn by Stevens. Nach dem erfolgreichen Comeback mit den Alben Mona Bone Jakon und Tea for the Tillerman im Jahre 1970 wurde Cat Stevens noch populärer, als Hal Ashby zahlreiche Stevens-Titel für den Film Harold und Maude verwendete. Download free and accurate PDF guitar tabs for Cat Stevens songs made from Power Tab files. Sprawling epic covering the life of a Texas cattle rancher and his family and associates. Teaser and the Firecat, Cat Stevens'ın 1971 yılında çıkardığı; Morning Has Broken, Moonshadow, ve Peace Train gibi beğenisi yüksek şarkıların bulunduğu, toplam 10 şarkı içeren albüm. It can also store significant amounts of energy from solar and wind power, making possible a fossil fuel-free society. God's Earth Party Forever site. Cat Stevens Sitting lyrics & video : Oh I'm on my way, I know I am, somewhere not so far From here All I know is all I feel right now, I feel the power growing In my hair Sitti. Like the first dewfall, on the first grass. It is exclusive to the deluxe edition of the Sing: Original Motion Picture Soundtrack. View credits, reviews, tracks and shop for the 2011 CD release of Icon on Discogs. Scrobble songs and get recommendations on other tracks and artists. Walaupun demikian, musisi yang sebelumnya sudah menyatakan ikut serta tetapi tidak sempat tampil juga ada, misalnya Tears for Fears, Julian Lennon, Cat Stevens, dan reuni Deep Purple. They lived above their family restaurant in the West End. The wind means agression, a person don't want to give up so easily. On the Road to Find Out (Box Set) ist die erste Kompilationsbox des Sängers und Songwriters Cat Stevens. Yoriyos created the art on Yusuf's album An Other Cup, something that Cat Stevens did for his own albums in the 1970s. Cat Stevens - The Wind Top Cat Stevens Lyrics Roadsinger O Caritas Morning Has Broken Moonshadow Katmandu Jesus If You Want To Sing Out Hard Headed Woman Father & Son Can't Keep It In Related Cat Stevens Links Official page Cat Stevens wiki The Wind video Cat Stevens twitter Cat Stevens facebook. Praise every morning. Cat Stevens is the former stage name of Steven Demetre Georgiou (born in London on 21 July 1948). Who'll be my love? You'll be my love, You'll be my sky above Who'll be my light? You'll be my light, You'll be my day and night You'll be mine tonight Roupi Glukeia. Live Aid tercatat sebagai konser terbesar dalam sejarah yang menampilkan banyak sekali musisi terkenal pada masa itu dan musisi terkenal dari zaman sebelumnya. Stevens' fans responded warmly to Buddha and the Chocolate Box's stylistic return to form. Op 30 december 1977 deed hij zijn artiestennaam Cat Stevens in de ban. Greatest Hits de Bruce Springsteen & The E Street Band (2009) Greatest Hits de Squeeze (1992) Greatest Hits de Steely Dan (1978) Greatest Hits de Steve Harley and Cockney Rebel (1988) Greatest Hits (1974-1978) de the Steve Miller Band (1978) Greatest Hits de Cat Stevens (1975) Greatest Hits, Vol. Members who like this artist also like: Pink Floyd, Simon & Garfunkel and The Beatles. He just told me that he'll ask her out for lunch or dinner if she refuses to fill him up with love and guess what? told him to move on and find someone else. New Masters è il secondo album del cantautore britannico Cat Stevens, pubblicato nel 1967 dall Deram Records. But I want to live, live, live and let the stars. - Cat Stevens quotes from BrainyQuote. "How Can I Tell You" (Cat Stevens) [Intro] Em A D G [Verse 1] Em A D G D G Em A How can I tell you that I love you, I love you D G D G But I can't think of right words to say Em A D G D G I. The album Numbers, subtitled "A Pythagorean Theory Tale," was based on a fictional planet in a far-off galaxy named Polygor. "The Wind" - Cat Stevens "Hallelujah" - Tori Kelly "Shake It Off Hot" - Nick Kroll and Reese Witherspoon Despicable Me Wiki is a FANDOM Movies Community. Listen online and get new recommendations, only at Last. Stream ad-free or purchase CD's and MP3s now on Amazon. The Qur'an makes it clear - if someone defames the prophet, then he must die. 1 de Rod Stewart (1979) Greatest Hits de Sublime. Add composer (person) / (organization) [How to Submit a Score]. Blackbird has spoken, like the first bird. Morning Has Broken Songtext von Cat Stevens mit Lyrics, deutscher Übersetzung, Musik-Videos und Liedtexten kostenlos auf Songtexte. On The Road To Find Out This song is by Cat Stevens and appears on the album Tea for the Tillerman (1970) and on the compilation album On the Road to Find Out (2001). / kick out the devil's s. Directed by George Stevens. Yusuf Islam (born Steven Demetre Georgiou, 21 July 1948), commonly known by his former stage name Cat Stevens, is a British singer-songwriter, multi-instrumentalist, humanitarian, and education. Then you'd turn on the radio And sing with the singer in the band And your mama would say to you. Die Tournee lief unter dem Namen „Majikat Earth Tour". com reaches roughly 1,904 users per day and delivers about 57,107 users each month. In addition to the obligatory hits, this collection also includes key album tracks, as well as 17 sides that make their digital debut here. There are multiple albums released with this title. This should be limited only to songs which have lyrics. Yusuf Islam is anno 2004 vader van vijf kinderen en woont in Londen. Scrobble songs and get recommendations on other tracks and artists. Cat Stevens hasn't crossed that line, so it falls in the range of permissable. Cat Stevens was born on July 21, 1948 in London, England as Stephen Demetre Georgiou. Bile Duct Cancer in Cats. Rock and Roll Hall of Fame and Museum är en institution och museum som ägs av stiftelsen Rock and Roll Hall of Fame Foundation i Cleveland, Ohio, USA, där även det stora pyramidformade museet finns. Mocedades - Eres Tu (Touch The Wind) (-12) Marvin Hamlisch - The Entertainer (NEW!) Albert Hammond - I'm A Train (+8) Joni Mitchell - Help Me (NEW!) James Brown - The Payback (+5) Bloodstone - Outside Woman (+2) Kool & The Gang - Jungle Boogie (-11) Cat Stevens - Oh Very Young (NEW!) Billy Paul - Thanks For Saving My Life (NEW!). I have seen your face and it's too much, too much for me. Find your favorite bands, discover new ones, and get alerts when bands you like are playing shows near you. Vaughn said to Nadia she was Apo's only hope and in Star wars Pricess Leina said that she need help in the same refenrece. Le premier est sorti chez Polygram sur son label récemment acquis, Island Records, en janvier 1990. In a contemporary review for Rolling Stone magazine, music critic Timothy Crouse praised Stevens' distinctive musical style and introspective songs such as "Tuesday's Dead" and "The Wind", but felt that he lacks Van Morrison's evocative quality and James Taylor's refined lyrics: "Cat has become a dependable artist, a good artist, but he appears. is a mountain goat who made his debut in "Giant Woman". That Film Sounds Good: Cat Stevens - The Wind Radiohead - Karma Police Chemical Brothers - Star Guitar Starsailor - Good Souls P. Les cançons conegudes dels seus àlbums de Philips inclouen Don't Let Me Be Misunderstood a Broadway-Blues-Ballads (1964), I put a spell on you, Ne me quitte pas (una interpretació d'una cançó de Jacques Brel) i Feeling Good a l'àlbum I Put a Spell on You (1965), Lilac Wine i Wild Is the Wind a l'àlbum del mateix nom (1966). Baldness and Hormone-Related Skin Disorders in Cats. As Lucifer beat his wings, he created a cold wind which continued to freeze the ice surrounding him and the other sinners in the Ninth Circle. This list should not include songs where the title is implied in the song. 41 videos Play all Cat Stevens - 1971: Teaser and the Firecat Full Album meme9438 Yusuf / Cat Stevens - Tell 'Em I'm Gone (Full Album) - Duration: 36:01. A weary gunfighter attempts to settle down with a homestead family, but a smoldering settler/rancher conflict forces him to act. She sang "Backlash Blues", written by her friend Langston Hughes on her first RCA album, Nina Simone Sings the Blues (1967). " Forget Cat Stevens in every way. Album The Laughing Apple. George Stevens' Giant (1956), in One Scene As the Siren's contribution to her friend Raymond de Felitta's valiant efforts to resurrect the sadly shredded reputation of the marvelous George Stevens, she was going to write up the movie Giant. Sinclair Broadcast Group is a right-wing media giant that pushes alt-right (Sebastian Gorka, Mike Cernovich, "deep state") and pro-Trump propaganda Like its competitor Clear Channel (now iHeartMedia), Sinclair was able to purchase multiple stations in individual markets, and consolidate ownership in regional markets largely by exploiting loopholes in ownership regulations. Converteu-se ao islã , mudou de nome para Yusuf e abandonou a música em 1978. The winds that he creates are felt throughout the other circles of Hell. Seit seiner Konversion zum Islam Ende 1977 heißt er Yusuf Islam, als Künstler nennt … Deutsch Wikipedia. Blow in the Wind é o terceiro álbum de estúdio da banda Me First and the Gimme Gimmes, lançado em 2001 pela gravadora independente Fat Wreck Chords. Check out Yusuf/Cat Stevens on Amazon Music. com Search. View credits, reviews, tracks and shop for the 1987 CD release of Classics Volume 24 on Discogs. Teaser and the Firecat es el quinto álbum de estudio del cantautor británico Cat Stevens, publicado en 1971.